Starfish (2018) (1080p WEB-DL x265 HEVC 10bit AC3 5.1 Qman) [UTR]

  • Category Movies
  • Type HEVC/x265
  • Language English
  • Total size 2.2 GB
  • Uploaded By UTRCorp
  • Downloads 495
  • Last checked 3 months ago
  • Date uploaded 3 months ago
  • Seeders 26
  • Leechers 9

Starfish

DramaHorrorScience Fiction

A unique, intimate and honest portrayal of a girl grieving for the loss of her best friend. That just happens to take place on the day the world ends as we know it.

Infohash : 04038CF023D36EF0E1E36DDA12C9E2779FF6F1FA







Media Information

Media Information

Code:

General
Format : Matroska
Format version : Version 4 / Version 2
File size : 2.22 GiB
Duration : 1 h 40 min
Overall bit rate : 3 164 kb/s
Encoded date : UTC 2019-06-10 12:43:36
Writing application : mkvmerge v30.1.0 ('Forever And More') 64-bit
Writing library : libebml v1.3.6 + libmatroska v1.4.9

Video
ID : 1
Format : HEVC
Format/Info : High Efficiency Video Coding
Format profile : Main [email protected]@Main
Codec ID : V_MPEGH/ISO/HEVC
Duration : 1 h 40 min
Bit rate : 2 778 kb/s
Width : 1 920 pixels
Height : 818 pixels
Display aspect ratio : 2.35:1
Frame rate mode : Constant
Frame rate : 23.976 (24000/1001) FPS
Color space : YUV
Chroma subsampling : 4:2:0
Bit depth : 10 bits
Bits/(Pixel*Frame) : 0.074
Stream size : 1.95 GiB (88%)
Writing library : x265 3.0_Au+27-3f4fb9a2ac68:[Windows][MSVC 1920][64 bit] 10bit
Encoding settings : cpuid=1111039 / frame-threads=2 / numa-pools=4 / wpp / no-pmode / no-pme / no-psnr / no-ssim / log-level=2 / input-csp=1 / input-res=1920x818 / interlace=0 / total-frames=144410 / level-idc=0 / high-tier=1 / uhd-bd=0 / ref=4 / no-allow-non-conformance / no-repeat-headers / annexb / no-aud / no-hrd / info / hash=0 / no-temporal-layers / open-gop / min-keyint=23 / keyint=250 / gop-lookahead=0 / bframes=8 / b-adapt=2 / b-pyramid / bframe-bias=0 / rc-lookahead=80 / lookahead-slices=4 / scenecut=40 / radl=0 / no-splice / no-intra-refresh / ctu=64 / min-cu-size=8 / no-rect / no-amp / max-tu-size=32 / tu-inter-depth=1 / tu-intra-depth=1 / limit-tu=0 / rdoq-level=2 / dynamic-rd=0.00 / no-ssim-rd / signhide / no-tskip / nr-intra=0 / nr-inter=0 / no-constrained-intra / no-strong-intra-smoothing / max-merge=3 / limit-refs=3 / limit-modes / me=3 / subme=3 / merange=57 / temporal-mvp / weightp / no-weightb / no-analyze-src-pics / deblock=1:1 / no-sao / no-sao-non-deblock / rd=4 / no-early-skip / no-rskip / no-fast-intra / no-tskip-fast / no-cu-lossless / b-intra / no-splitrd-skip / rdpenalty=0 / psy-rd=1.20 / psy-rdoq=2.50 / no-rd-refine / no-lossless / cbqpoffs=0 / crqpoffs=0 / rc=crf / crf=21.5 / qcomp=0.60 / qpstep=4 / stats-write=0 / stats-read=0 / ipratio=1.40 / pbratio=1.30 / aq-mode=2 / aq-strength=1.00 / cutree / zone-count=0 / no-strict-cbr / qg-size=32 / no-rc-grain / qpmax=69 / qpmin=0 / no-const-vbv / sar=0 / overscan=0 / videoformat=5 / range=0 / colorprim=2 / transfer=2 / colormatrix=2 / chromaloc=0 / display-window=0 / max-cll=0,0 / min-luma=0 / max-luma=1023 / log2-max-poc-lsb=8 / vui-timing-info / vui-hrd-info / slices=1 / no-opt-qp-pps / no-opt-ref-list-length-pps / no-multi-pass-opt-rps / scenecut-bias=0.05 / no-opt-cu-delta-qp / aq-motion / no-hdr / no-hdr-opt / no-dhdr10-opt / no-idr-recovery-sei / analysis-reuse-level=5 / scale-factor=0 / refine-intra=0 / refine-inter=0 / refine-mv=0 / refine-ctu-distortion=0 / no-limit-sao / ctu-info=0 / no-lowpass-dct / refine-analysis-type=0 / copy-pic=1 / max-ausize-factor=1.0 / no-dynamic-refine / no-single-sei / no-hevc-aq / no-svt / qp-adaptation-range=1.00
Language : English
Default : Yes
Forced : No

Audio
ID : 2
Format : AC-3
Format/Info : Audio Coding 3
Mode extension : CM (complete main)
Format settings, Endianness : Big
Codec ID : A_AC3
Duration : 1 h 40 min
Bit rate mode : Constant
Bit rate : 384 kb/s
Channel(s) : 6 channels
Channel positions : Front: L C R, Side: L R, LFE
Sampling rate : 48.0 kHz
Frame rate : 31.250 FPS (1536 spf)
Bit depth : 16 bits
Compression mode : Lossy
Stream size : 276 MiB (12%)
Language : English
Default : Yes
Forced : No

Menu
00:00:00.000 : en:Hello
00:00:01.000 : en:The Wake
00:00:05.000 : en:Breaking In
00:00:09.000 : en:Grace's Apartment
00:00:15.000 : en:Distractions
00:00:20.000 : en:The Seventh Signal
00:00:22.000 : en:Snow
00:00:25.000 : en:Anyone There
00:00:27.000 : en:The Seaweed Creature
00:00:30.000 : en:Chris
00:00:32.000 : en:This Mixtape Will Save the World
00:00:33.000 : en:Grace's Message
00:00:37.000 : en:The Second Signal
00:00:39.000 : en:What If...
00:00:42.000 : en:If I Choose to Ignore It
00:00:44.000 : en:Later...
00:00:47.000 : en:Broken
00:00:49.000 : en:The Tapes
00:00:52.000 : en:Supermarket
00:00:54.000 : en:Sinking
00:01:00.000 : en:Cinema
00:01:04.000 : en:All the Lost Stories
00:01:06.000 : en:The Library
00:01:08.000 : en:Grace
00:01:13.000 : en:Using the Signal
00:01:18.000 : en:The Beach
00:01:21.000 : en:Confronting the Seaweed Creature
00:01:24.000 : en:The Radio Station
00:01:27.000 : en:Will This Mixtape Save the World
00:01:32.000 : en:The Unknown
00:01:36.000 : en:Gloomy Planets



Source Information

Code:

Release: Unknown Source/NO-GROUP


Code:


Note From UTR
We have no issue with individuals posting or re-uploading our torrents on a platform we aren't on. However, if this is something you'd like to do, please do so in a 'as-is' format. We ask that you do not create a new torrent, include all descriptions you see above including the UTR logo, tags, notes and screenshots. If you'd like to become a permanent poster on a website we don't post to, feel free to get in contact with a UniTeam member.

If possible please donate: BTC 1QA5fum5AyXvWzdVCkQzUNvw3Ef15fHRaR





Files:

Starfish (2018) (1080p WEB-DL x265 HEVC 10bit AC3 5.1 Qman) [UTR]
  • Starfish.(2018).1080p.WEB-DL.10-bit.x265.AC3.5.1 Qman[UTR].mkv (2.2 GB)

Comments

Code:

  • udp://9.rarbg.com:2710/announce
  • udp://tracker.opentrackr.org:1337/announce
  • udp://tracker.torrent.eu.org:451/announce
  • udp://tracker.leechers-paradise.org:6969/announce
  • udp://tracker.coppersurfer.tk:6969/announce