Norm.of.the.North.King.Sized.Adventure.2019.1080p.WEB-DL.DD5.1.H2...

  • Category Movies
  • Type HD
  • Language English
  • Total size 3.5 GB
  • Uploaded By Sergey321
  • Downloads 425
  • Last checked 3 months ago
  • Date uploaded 3 months ago
  • Seeders 79
  • Leechers 48

Norm of the North: King Sized Adven...

An ancient Chinese artifact has been stolen by a villainous archaeologist named Dexter. With the help of his Lemming friends, Norm must keep his word and embark on a journey across the world to help recover the artifact for the people of China.

Infohash : 35860F80648C09EAAED1981ACCC61A8293C571F2

Norm.of.the.North.King.Sized.Adventure.2019.1080p.WEB-DL.DD5.1.H264-FGT
https://www.imdb.com/title/tt9428190/

Poster:

Mediainfo:

Video:
Format : AVC
Duration : 1 h 30 min
Bit rate : 5 103 kb/s
Width : 1 908 pixels
Height : 1 068 pixels
Frame rate : 23.976 FPS
Stream size : 3.21 GiB (93%)

Audio:
Format : AC-3
Duration : 1 h 30 min
Bit rate : 384 kb/s
Channel(s) : 6 channels
Stream size : 247 MiB (7%)
Language : English


Screenshots:




Files:

Norm.of.the.North.King.Sized.Adventure.2019.1080p.WEB-DL.DD5.1.H264-FGT
  • English-SDH.srt (87.9 KB)
  • English.srt (66.0 KB)
  • Norm.of.the.North.King.Sized.Adventure.2019.1080p.WEB-DL.DD5.1.H264-FGT.mkv (3.5 GB)
  • RARBG.txt (0.0 KB)

There are currently no comments. Feel free to leave one :)

Code:

  • http://tracker.trackerfix.com:80/announce
  • udp://9.rarbg.me:2730/announce
  • udp://9.rarbg.to:2720/announce