Smokin' Aces 2006 x264 720p Esub BluRay 6.0 Dual Audio English Hi...

  • Category Movies
  • Type Dubs/Dual Audio
  • Language English
  • Total size 1,001.2 MB
  • Uploaded By PENDUDESI
  • Downloads 999
  • Last checked 3 days ago
  • Date uploaded 1 week ago
  • Seeders 15
  • Leechers 5

Smokin' Aces

ActionComedyCrimeThriller

When a Las Vegas performer-turned-snitch named Buddy Israel decides to turn state's evidence and testify against the mob, it seems that a whole lot of people would like to make sure he's no longer breathing.

Infohash : 7196532037BD711F94934621D360DC402B1947D8

https://www.gopisahi.xyz



https://www.gopisahi.xyz/2019/09/smokin-aces-2006-x264-720p-esub-bluray.html

Smokin' Aces 2006 x264 720p Esub BluRay 6.0 Dual Audio English Hindi GOPISAHI

Format : Matroska
Format version : Version 4
File size : 1 001 MiB
Duration : 1 h 48 min
Overall bit rate : 1 287 kb/s
Movie name : Smokin' Aces 2006 GOPISAHI

Video
ID : 1
Format : AVC
Format/Info : Advanced Video Codec
Format profile : [email protected]
Format settings : CABAC / 16 Ref Frames
Format settings, CABAC : Yes
Format settings, Reference fra : 16 frames
Codec ID : V_MPEG4/ISO/AVC
Duration : 1 h 48 min
Bit rate : 899 kb/s
Width : 1 280 pixels
Height : 544 pixels
Display aspect ratio : 2.35:1
Frame rate mode : Constant
Frame rate : 23.976 (24000/1001) FPS
Color space : YUV
Chroma subsampling : 4:2:0
Bit depth : 8 bits
Scan type : Progressive
Bits/(Pixel*Frame) : 0.054
Stream size : 699 MiB (70%)
Title : GOPISAHI
Writing library : x264 core 157 r2935 545de2f

Audio #1
Format : AAC LC
Duration : 1 h 48 min
Bit rate : 192 kb/s
Channel(s) : 6 channels
Channel layout : L R C Cb Lb Rb
Sampling rate : 48.0 kHz
Frame rate : 46.875 FPS (1024 SPF)
Compression mode : Lossy
Delay relative to video : -21 ms
Stream size : 150 MiB (15%)
Title : GOPISAHI
Language : Hindi

Audio #2
Format : AAC LC
Duration : 1 h 48 min
Bit rate : 192 kb/s
Channel(s) : 6 channels
Channel layout : L R C Cb Lb Rb
Sampling rate : 48.0 kHz
Frame rate : 46.875 FPS (1024 SPF)
Compression mode : Lossy
Delay relative to video : -21 ms
Stream size : 150 MiB (15%)
Title : GOPISAHI
Language : English

Text
Language : English







Files:

  • Smokin' Aces 2006 x264 720p Esub BluRay 6.0 Dual Audio English Hindi GOPISAHI.mkv (1,001.2 MB)

There are currently no comments. Feel free to leave one :)

Code:

  • udp://tracker.coppersurfer.tk:6969/announce
  • udp://tracker.opentrackr.org:1337/announce
  • udp://explodie.org:6969/announce
  • udp://9.rarbg.to:2790/announce
  • udp://bt.xxx-tracker.com:2710/announce
  • udp://tracker.internetwarriors.net:1337/announce
  • udp://tracker.openbittorrent.com:80/announce
  • udp://tracker.tiny-vps.com:6969/announce
  • udp://open.demonii.si:1337/announce
  • udp://tracker.torrent.eu.org:451/announce
  • udp://tracker.pirateparty.gr:6969/announce
  • udp://ipv4.tracker.harry.lu:80/announce
  • udp://tracker.cyberia.is:6969/announce
  • udp://9.rarbg.to:2790/announce