Boomerang (2019) 720p UNCUT HDRip x264 ESubs [Dual Audio] [Hindi ...

  • Category Movies
  • Type Dubs/Dual Audio
  • Language Hindi
  • Total size 1.6 GB
  • Uploaded By Movienow7
  • Downloads 1564
  • Last checked 3 days ago
  • Date uploaded 1 week ago
  • Seeders 9
  • Leechers 2

Boomerang

Adnan is obsessed with going to his ex-wife's housewarming party. Unfortunately, he isn't invited.

Infohash : 0F9AA7B2B2BA7559872DB598A3E24CF9D0B8D266

Boomerang (2019) 720p UNCUT HDRip x264 ESubs [Dual Audio] [Hindi DD2.0 + Tamil DD5.1] Exclusive BABAHD

For Direct Link Join US
Exclusive Uploaded And Sync By @BabaHD



Source's : Video TMV & Hindi Audio ORG @ADMD Thanks


Video
ID : 1
Format : AVC
Format/Info : Advanced Video Codec
Format profile : [email protected]
Format settings : CABAC / 4 Ref Frames
Format settings, CABAC : Yes
Format settings, Reference frames : 4 frames
Codec ID : V_MPEG4/ISO/AVC
Duration : 2 h 8 min
Bit rate : 1 425 kb/s
Width : 1 280 pixels
Height : 544 pixels
Display aspect ratio : 2.35:1
Frame rate mode : Constant
Frame rate : 24.000 FPS
Color space : YUV
Chroma subsampling : 4:2:0
Bit depth : 8 bits
Scan type : Progressive
Bits/(Pixel*Frame) : 0.085
Stream size : 1.26 GiB (80%)
Writing library : x264 core
Default : Yes
Forced : No
Color range : Limited
Color primaries : BT.709
Transfer characteristics : BT.709
Matrix coefficients : BT.709


Audio #1
ID : 2
Format : AC-3
Format/Info : Audio Coding 3
Commercial name : Dolby Digital
Codec ID : A_AC3
Duration : 2 h 8 min
Bit rate mode : Constant
Bit rate : 192 kb/s
Channel(s) : 2 channels
Channel layout : L R
Sampling rate : 48.0 kHz
Frame rate : 31.250 FPS (1536 SPF)
Bit depth : 16 bits
Compression mode : Lossy
Delay relative to video : -5 ms
Stream size : 176 MiB (11%)
Language : Hindi
Service kind : Complete Main
Default : Yes
Forced : Yes


Audio #2
ID : 3
Format : AC-3
Format/Info : Audio Coding 3
Commercial name : Dolby Digital
Codec ID : A_AC3
Duration : 2 h 8 min
Bit rate mode : Constant
Bit rate : 160 kb/s
Channel(s) : 6 channels
Channel layout : L R C LFE Ls Rs
Sampling rate : 48.0 kHz
Frame rate : 31.250 FPS (1536 SPF)
Bit depth : 16 bits
Compression mode : Lossy
Delay relative to video : -5 ms
Stream size : 147 MiB (9%)
Language : Tamil
Service kind : Complete Main
Default : No
Forced : No


Text
ID : 4
Format : UTF-8
Codec ID : S_TEXT/UTF8
Codec ID/Info : UTF-8 Plain Text
Duration : 2 h 4 min
Bit rate : 79 b/s
Count of elements : 2297
Stream size : 72.1 KiB (0%)
Language : English
Default : Yes
Forced : No



Image Open in New tag For Original Screens













Files:

  • Boomerang (2019) 720p UNCUT HDRip x264 ESubs [Hindi DD2.0 + Tamil DD5.1] [BABAHD].mkv (1.6 GB)

There are currently no comments. Feel free to leave one :)

Code:

  • udp://tracker.coppersurfer.tk:6969/announce
  • http://tracker.internetwarriors.net:1337/announce
  • http://tracker3.itzmx.com:6961/announce
  • http://tracker1.itzmx.com:8080/announce
  • udp://tracker.pirateparty.gr:6969/announce
  • udp://exodus.desync.com:6969/announce
  • udp://tracker.leechers-paradise.org:6969/announce
  • udp://tracker.opentrackr.org:1337/announce
  • udp://open.stealth.si:80/announce
  • udp://open.demonii.si:1337/announce
  • udp://denis.stalker.upeer.me:6969/announce
  • udp://tracker.vanitycore.co:6969/announce
  • udp://tracker.coppersurfer.tk:6969/announce
  • udp://tracker.ilibr.org:6969/announce
  • udp://tracker.ilibr.org:80/announce
  • udp://tracker.opentrackr.org:1337/announce
  • udp://zer0day.to:1337/announce
  • udp://tracker.zer0day.to:1337/announce
  • udp://p4p.arenabg.com:1337/announce
  • udp://p4p.arenabg.ch:1337/announce
  • udp://tracker.leechers-paradise.org:6969/announce
  • udp://explodie.org:6969/announce
  • udp://9.rarbg.to:2740/announce
  • udp://eddie4.nl:6969/announce
  • udp://9.rarbg.to:2740/announce
  • udp://tracker.opentrackr.org:1337/announce
  • http://tracker1.itzmx.com:8080/announce
  • http://tracker3.itzmx.com:6961/announce
  • udp://tracker.tiny-vps.com:6969/announce
  • udp://thetracker.org:80/announce
  • udp://open.demonii.si:1337/announce
  • udp://bt.firebit.co.uk:6969/announce
  • udp://tracker.leechers-paradise.org:6969/announce
  • udp://tracker.internetwarriors.net:1337/announce
  • udp://9.rarbg.to:2740/announce
  • udp://9.rarbg.me:2750/announce
  • udp://9.rarbg.com:2780/announce
  • udp://9.rarbg.me:2750/announce
  • udp://open.stealth.si:80/announce
  • udp://tracker.zer0day.to:1337/announce
  • udp://tracker.leechers-paradise.org:6969/announce
  • udp://coppersurfer.tk:6969/announce